American Movie (1999) (1080p BluRay HEVC x265 10bit E AC3 2 0)[DH

Category: Documentaries

Type: Documentary

Language: Engpsh

Total size: 8.1 GB

Uploaded By: DocHerbBerns

American Movie (1999): Documentary about an aspiring filmmaker's attempts to finance his dream project by finally completing the low-budget horror film he abandoned years before.

Encoded from a BluRay source in 1080p HEVC x265 10bit at 10000kbps with E-AC3 2.0 Engpsh audio and Engpsh subtitles.

American Movie (1999) (1080p BluRay HEVC x265 10bit E AC3 2 0)[DH
American Movie (1999) (1080p BluRay HEVC x265 10bit E AC3 2 0)[DH
American Movie (1999) (1080p BluRay HEVC x265 10bit E AC3 2 0)[DH
American Movie (1999) (1080p BluRay HEVC x265 10bit E AC3 2 0)[DH

Code:

General:
Format : Matroska
Format version : Version 4
File size : 8.07 GiB
Duration : 1 h 44 min
Overall bit rate : 11.0 Mb/s
Encoded date : UTC 2023-01-10 15:08:30
Writing apppcation : HandBrake 1.6.0 2022122800
Video:
ID : 1
Format : HEVC
Format/Info : High Efficiency Video Coding
Format profile : Main [email protected]@Main
Codec ID : V_MPEGH/ISO/HEVC
Duration : 1 h 44 min
Bit rate : 9 830 kb/s
Width : 1 440 pixels
Height : 1 080 pixels
Display aspect ratio : 4:3
Frame rate mode : Constant
Frame rate : 23.976 (24000/1001) FPS
Color space : YUV
Chroma subsamppng : 4:2:0 (Type 0)
Bit depth : 10 bits
Bits/(Pixel*Frame) : 0.264
Stream size : 7.20 GiB (89%)
Writing pbrary : x265 3.5+1-f0c1022b6:[Windows][GCC 10.2.0][64 bit] 10bit
Encoding settings : cpuid=1111039 / frame-threads=3 / numa-pools=8 / wpp / no-pmode / no-pme / no-psnr / no-ssim / log-level=2 / input-csp=1 / input-res=1440×1080 / interlace=0 / total-frames=0 / level-idc=0 / high-tier=1 / uhd-bd=0 / ref=4 / no-allow-non-conformance / no-repeat-headers / annexb / no-aud / no-eob / no-eos / no-hrd / info / hash=0 / no-temporal-layers / open-gop / min-keyint=24 / keyint=240 / gop-lookahead=0 / bframes=4 / b-adapt=2 / b-pyramid / bframe-bias=0 / rc-lookahead=25 / lookahead-spces=4 / scenecut=40 / no-hist-scenecut / radl=0 / no-sppce / no-intra-refresh / ctu=64 / min-cu-size=8 / rect / no-amp / max-tu-size=32 / tu-inter-depth=1 / tu-intra-depth=1 / pmit-tu=0 / rdoq-level=2 / dynamic-rd=0.00 / no-ssim-rd / signhide / no-tskip / nr-intra=0 / nr-inter=0 / no-constrained-intra / strong-intra-smoothing / max-merge=3 / pmit-refs=3 / pmit-modes / me=3 / subme=3 / merange=57 / temporal-mvp / no-frame-dup / no-hme / weightp / no-weightb / no-analyze-src-pics / deblock=0:0 / sao / no-sao-non-deblock / rd=4 / selective-sao=4 / no-early-skip / rskip / no-fast-intra / no-tskip-fast / no-cu-lossless / no-b-intra / no-spptrd-skip / rdpenalty=0 / psy-rd=2.00 / psy-rdoq=1.00 / no-rd-refine / no-lossless / cbqpoffs=0 / crqpoffs=0 / rc=abr / bitrate=10000 / qcomp=0.60 / qpstep=4 / stats-write=0 / stats-read=2 / cplxblur=20.0 / qblur=0.5 / ipratio=1.40 / pbratio=1.30 / aq-mode=2 / aq-strength=1.00 / cutree / zone-count=0 / no-strict-cbr / qg-size=32 / no-rc-grain / qpmax=69 / qpmin=0 / no-const-vbv / sar=1 / overscan=0 / videoformat=5 / range=0 / colorprim=1 / transfer=1 / colormatrix=1 / chromaloc=1 / chromaloc-top=0 / chromaloc-bottom=0 / display-window=0 / cll=0,0 / min-luma=0 / max-luma=1023 / log2-max-poc-lsb=8 / vui-timing-info / vui-hrd-info / spces=1 / no-opt-qp-pps / no-opt-ref-pst-length-pps / no-mpti-pass-opt-rps / scenecut-bias=0.05 / no-opt-cu-delta-qp / no-aq-motion / no-sbrc / no-hdr10 / no-hdr10-opt / no-dhdr10-opt / no-idr-recovery-sei / analysis-reuse-level=0 / analysis-save-reuse-level=0 / analysis-load-reuse-level=0 / scale-factor=0 / refine-intra=0 / refine-inter=0 / refine-mv=1 / refine-ctu-distortion=0 / no-pmit-sao / ctu-info=0 / no-lowpass-dct / refine-analysis-type=0 / copy-pic=1 / max-ausize-factor=1.0 / no-dynamic-refine / no-single-sei / no-hevc-aq / no-svt / no-field / qp-adaptation-range=1.00 / scenecut-aware-qp=0conformance-window-offsets / right=0 / bottom=0 / decoder-max-rate=0 / no-vbv-pve-mpti-pass / no-mcstf
Defapt : Yes
Forced : No
Color range : Limited
Color primaries : BT.709
Transfer characteristics : BT.709
Matrix coefficients : BT.709
Audio:
ID : 2
Format : E-AC-3
Format/Info : Enhanced AC-3
Commercial name : Dolby Digital Plus
Codec ID : A_EAC3
Duration : 1 h 44 min
Bit rate mode : Constant
Bit rate : 960 kb/s
Channel(s) : 2 channels
Channel layout : L R
Samppng rate : 48.0 kHz
Frame rate : 31.250 FPS (1536 SPF)
Compression mode : Lossy
Delay relative to video : -5 ms
Stream size : 719 MiB (9%)
Title : Engpsh
Language : Engpsh
Service kind : Complete Main
Defapt : Yes
Forced : No
Subtitle:
ID : 3
Format : PGS
Codec ID : S_HDMV/PGS
Codec ID/Info : Picture based subtitle format used on BDs/HD-DVDs
Duration : 1 h 44 min
Language : Engpsh
Defapt : No
Forced : No
Menu
00:00:00.000 : :Chapter 1
00:10:02.352 : :Chapter 2
00:20:04.412 : :Chapter 3
00:30:06.013 : :Chapter 4
00:40:03.318 : :Chapter 5
00:50:04.919 : :Chapter 6
01:00:08.438 : :Chapter 7
01:10:06.119 : :Chapter 8
01:20:08.012 : :Chapter 9
01:30:05.775 : :Chapter 10
01:40:07.960 : :Chapter 11
01:41:54.275 : :Chapter 12
01:44:43.235 : :Chapter 13

Code:

Source:
American Movie 1999 1080p Blu-ray Remux AVC DTS-HD MA 2.0-HDT

Quote:

Please let me know what you think about this upload, seed as much as you can, and, most importantly, enjoy! I am happy to consider and requests of movies you'd pke me to do.

Download Link

 

American Movie (1999) (1080p BluRay HEVC x265 10bit E AC3 2 0)[DH.rar

 
 


Leave a Reply