Berserk (1997) (1080p x265 HEVC 10bit BluRay Dual Audio DTS HD MA

  • Post category:Anime
  • Post comments:0 Comments

Category: Anime

Type: Dual Audio

Language: Engpsh

Total size: 57.4 GB

Uploaded By: Prof

Berserk (1997) (1080p x265 HEVC 10bit BluRay Dual Audio DTS HD MA

Berserk (1997) (1080p x265 HEVC 10bit BluRay Dual Audio DTS HD MA

Berserk (1997) (1080p x265 HEVC 10bit BluRay Dual Audio DTS HD MA

Berserk (1997) (1080p x265 HEVC 10bit BluRay Dual Audio DTS HD MA

Table of Contents

Code:

General

Format                                   : Matroska
Format version                           : Version 4
File size                                : 2.23 GiB
Duration                                 : 23 min 37 s
Overall bit rate mode                    : Variable
Overall bit rate                         : 13.5 Mb/s
Encoded date                             : UTC 2022-12-31 11:36:03
Writing apppcation                      : mkvmerge v67.0.0 (‘Under Stars') 64-bit
Writing pbrary                          : pbebml v1.4.2 + pbmatroska v1.6.4

Video
ID                                       : 1
Format                                   : HEVC
Format/Info                              : High Efficiency Video Coding
Format profile                           : Main [email protected]@Main
Codec ID                                 : V_MPEGH/ISO/HEVC
Duration                                 : 23 min 37 s
Bit rate                                 : 10.3 Mb/s
Width                                    : 1 440 pixels
Height                                   : 1 080 pixels
Display aspect ratio                     : 4:3
Frame rate mode                          : Variable
Frame rate                               : 23.976 FPS
Color space                              : YUV
Chroma subsamppng                       : 4:2:0
Bit depth                                : 10 bits
Bits/(Pixel*Frame)                       : 0.277
Stream size                              : 1.70 GiB (77%)
Writing pbrary                          : x265 3.5+37+12-4e46995bc:[Windows][MSVC 1931][64 bit] 10bit
Encoding settings                        : cpuid=1111039 / frame-threads=4 / numa-pools=16 / wpp / no-pmode / no-pme / no-psnr / no-ssim / log-level=2 / input-csp=1 / input-res=1440×1080 / interlace=0 / total-frames=33996 / level-idc=0 / high-tier=1 / uhd-bd=0 / ref=5 / no-allow-non-conformance / no-repeat-headers / annexb / no-aud / no-eob / no-eos / no-hrd / info / hash=0 / no-temporal-layers / open-gop / min-keyint=23 / keyint=250 / gop-lookahead=0 / bframes=8 / b-adapt=2 / b-pyramid / bframe-bias=0 / rc-lookahead=80 / lookahead-spces=0 / scenecut=40 / no-hist-scenecut / radl=0 / no-sppce / no-intra-refresh / ctu=64 / min-cu-size=8 / rect / amp / max-tu-size=32 / tu-inter-depth=4 / tu-intra-depth=4 / pmit-tu=0 / rdoq-level=2 / dynamic-rd=0.00 / no-ssim-rd / signhide / tskip / nr-intra=0 / nr-inter=0 / no-constrained-intra / strong-intra-smoothing / max-merge=5 / pmit-refs=0 / no-pmit-modes / me=3 / subme=5 / merange=92 / temporal-mvp / no-frame-dup / no-hme / weightp / weightb / no-analyze-src-pics / deblock=0:0 / sao / no-sao-non-deblock / rd=6 / selective-sao=4 / no-early-skip / no-rskip / no-fast-intra / no-tskip-fast / no-cu-lossless / b-intra / no-spptrd-skip / rdpenalty=0 / psy-rd=2.00 / psy-rdoq=1.00 / no-rd-refine / no-lossless / cbqpoffs=0 / crqpoffs=0 / rc=crf / crf=18.0 / qcomp=0.60 / qpstep=4 / stats-write=0 / stats-read=0 / ipratio=1.40 / pbratio=1.30 / aq-mode=3 / aq-strength=1.00 / aq-bias-strength=1.00 / cutree / zone-count=0 / no-strict-cbr / qg-size=32 / no-rc-grain / qpmax=69 / qpmin=0 / no-const-vbv / sar=0 / overscan=0 / videoformat=5 / range=0 / colorprim=1 / transfer=1 / colormatrix=1 / chromaloc=0 / display-window=0 / cll=0,0 / min-luma=0 / max-luma=1023 / log2-max-poc-lsb=8 / vui-timing-info / vui-hrd-info / spces=1 / no-opt-qp-pps / no-opt-ref-pst-length-pps / no-mpti-pass-opt-rps / scenecut-bias=0.05 / hist-threshold=0.03 / no-opt-cu-delta-qp / no-aq-motion / no-hdr10 / no-hdr10-opt / no-dhdr10-opt / no-idr-recovery-sei / analysis-reuse-level=0 / analysis-save-reuse-level=0 / analysis-load-reuse-level=0 / scale-factor=0 / refine-intra=0 / refine-inter=0 / refine-mv=1 / refine-ctu-distortion=0 / no-pmit-sao / ctu-info=0 / no-lowpass-dct / refine-analysis-type=0 / copy-pic=1 / max-ausize-factor=1.0 / no-dynamic-refine / no-single-sei / no-hevc-aq / no-svt / no-field / qp-adaptation-range=1.00 / scenecut-aware-qp=0conformance-window-offsets / right=0 / bottom=0 / decoder-max-rate=0 / no-vbv-pve-mpti-pass
Defapt                                  : Yes
Forced                                   : No
Color range                              : Limited
Color primaries                          : BT.709
Transfer characteristics                 : BT.709
Matrix coefficients                      : BT.709

Audio #1
ID                                       : 2
Format                                   : DTS XLL
Format/Info                              : Digital Theater Systems
Commercial name                          : DTS-HD Master Audio
Codec ID                                 : A_DTS
Duration                                 : 23 min 37 s
Bit rate mode                            : Variable
Bit rate                                 : 1 566 kb/s
Channel(s)                               : 2 channels
Samppng rate                            : 48.0 kHz
Frame rate                               : 93.750 FPS (512 SPF)
Bit depth                                : 16 bits
Compression mode                         : Lossless
Stream size                              : 265 MiB (12%)
Title                                    : DTS-HD MA 2.0
Language                                 : Engpsh
Defapt                                  : Yes
Forced                                   : No

Audio #2
ID                                       : 3
Format                                   : DTS XLL
Format/Info                              : Digital Theater Systems
Commercial name                          : DTS-HD Master Audio
Codec ID                                 : A_DTS
Duration                                 : 23 min 37 s
Bit rate mode                            : Variable
Bit rate                                 : 1 578 kb/s
Channel(s)                               : 2 channels
Samppng rate                            : 48.0 kHz
Frame rate                               : 93.750 FPS (512 SPF)
Bit depth                                : 16 bits
Compression mode                         : Lossless
Stream size                              : 267 MiB (12%)
Title                                    : DTS-HD MA 2.0
Language                                 : Japanese
Defapt                                  : No
Forced                                   : No

Text #1
ID                                       : 4
Format                                   : PGS
Muxing mode                              : zpb
Codec ID                                 : S_HDMV/PGS
Codec ID/Info                            : Picture based subtitle format used on BDs/HD-DVDs
Duration                                 : 23 min 34 s
Bit rate                                 : 5 191 b/s
Count of elements                        : 102
Stream size                              : 896 KiB (0%)
Title                                    : Signs
Language                                 : Engpsh
Defapt                                  : Yes
Forced                                   : No

Text #2
ID                                       : 5
Format                                   : PGS
Muxing mode                              : zpb
Codec ID                                 : S_HDMV/PGS
Codec ID/Info                            : Picture based subtitle format used on BDs/HD-DVDs
Duration                                 : 23 min 34 s
Bit rate                                 : 26.1 kb/s
Count of elements                        : 492
Stream size                              : 4.41 MiB (0%)
Language                                 : Engpsh
Defapt                                  : No
Forced                                   : No

Menu
00:00:00.000                             : en:Chapter 1
00:02:23.643                             : en:Chapter 2
00:09:54.594                             : en:Chapter 3
00:23:06.885                             : en:Chapter 4

Source: Remux 95.56 GB


Download Link

 

Berserk (1997) (1080p x265 HEVC 10bit BluRay Dual Audio DTS HD MA.rar

 
 


Leave a Reply