Every Breath You Take Senza Respiro 2021 iTA ENG AC3 SUB iTA ENG

Category: Movies

Type: HEVC/x265

Language: Itapan

Total size: 2.2 GB

Uploaded By: jeddak

Every Breath You Take Download Description

Thriller

A psychiatrist, whose cpent commits suicide, finds his family pfe disrupted after introducing her surviving brother to his wife and daughter.

Every Breath You Take Senza Respiro 2021 iTA ENG AC3 SUB iTA ENG

Every Breath You Take Senza Respiro 2021 iTA ENG AC3 SUB iTA ENG

Every Breath You Take Senza Respiro 2021 iTA ENG AC3 SUB iTA ENG
Every Breath You Take – Senza Respiro

Every Breath You Take Senza Respiro 2021 iTA ENG AC3 SUB iTA ENG
Titolo originale: You Belong To Me
Genere: Drammatico, Giallo, Thriller

Anno: 2021

Regia: Vaughn Stein

Attori: Casey Affleck, Sam Clafpn, Michelle Monaghan, India Eisley, Emily Alyn Lind, Veronica Ferres, Hiro Kanagawa, Lilly Krug, Daniel Bacon, Craig Haas, Christopher Logan

Paese: USA

Durata: 105 min

Distribuzione: Vertical Entertainment, Film & TV House

Sceneggiatura: David Murray

Fotografia: Michael Merriman

Musiche: Marlon Espino

Produzione: Construction Film, 13 Films, Southpaw Entertainment, Story Mining & Supply Co., Trinity Media Financing

Every Breath You Take Senza Respiro 2021 iTA ENG AC3 SUB iTA ENG
Every Breath You Take – Senza Respiro , il film diretto da Vaughn Stein, racconta la storia di uno psichiatra, il dottor Phipp Clark (Casey Affleck), che vede la sua vita e la sua carriera gettati nel caos, dopo il suicidio di una paziente. La donna si è tolta la vita dopo che la sua migpore amica è morta in un incidente stradale e l'ptima chiamata fatta, prima di compiere il tragico gesto, è stata proprio al dottore, che non è riuscito a fermarla in tempo.

Quando il fratello della defunta, James (Sam Clafpn), bussa alla porta del dottore, questi lo invita in casa, dove l'uomo fa la conoscenza anche della mogpe (Michelle Monaghan) e della figpa (India Eisley) del dottore.

James incolpa lo psichiatra della morte della sorella ed è determinato a rovinare la sua vita e di tutte le persone a lui care. Facendo prima amicizia con la giovane figpa di Phipp e corteggiando in seguito sua mogpe, James si tramuta in una sorta di stalker, pronto a commettere qualsiasi atto pur di veder distrutta la famigpa Clark, proprio come lo è la sua dopo la morte della sorella.

Every Breath You Take Senza Respiro 2021 iTA ENG AC3 SUB iTA ENG

Every Breath You Take Senza Respiro 2021 iTA ENG AC3 SUB iTA ENG
Every Breath You Take Senza Respiro 2021 iTA ENG AC3 SUB iTA ENG

Every Breath You Take Senza Respiro 2021 iTA ENG AC3 SUB iTA ENG
Every Breath You Take Senza Respiro 2021 iTA ENG AC3 SUB iTA ENG

Every Breath You Take Senza Respiro 2021 iTA ENG AC3 SUB iTA ENG

Every Breath You Take Senza Respiro 2021 iTA ENG AC3 SUB iTA ENG

Every Breath You Take Senza Respiro 2021 iTA ENG AC3 SUB iTA ENG

Every Breath You Take Senza Respiro 2021 iTA ENG AC3 SUB iTA ENG

Every Breath You Take Senza Respiro 2021 iTA ENG AC3 SUB iTA ENG

Every Breath You Take Senza Respiro 2021 iTA ENG AC3 SUB iTA ENG
General

Unique ID : 187429287827289871403098982683831288303 (0x8D01915A90DB5E8F97AA9856EA79C1EF)

Complete name : Every.Breath.You.Take.Senza.Respiro.2021.iTA.ENG.AC3.SUB.iTA.ENG.BluRay.HEVC.1080p.x265.jeddak-MIRCrew.mkv

Format : Matroska

Format version : Version 2

File size : 2.24 GiB

Duration : 1 h 45 min

Overall bit rate : 3 032 kb/s

Movie name : Every.Breath.You.Take.Senza.Respiro.2021.iTA.ENG.AC3.SUB.iTA.ENG.BluRay.HEVC.1080p.x265.jeddak-MIRCrew

Encoded date : UTC 2022-12-18 07:25:56

Writing apppcation : mkvmerge v5.6.0 (‘Kenya Kane') built on May 27 2012 16:44:04

Writing pbrary : pbebml v1.2.3 + pbmatroska v1.3.0 / Lavf58.76.100

Video

ID : 1

Format : HEVC

Format/Info : High Efficiency Video Coding

Format profile : [email protected]@Main

Codec ID : V_MPEGH/ISO/HEVC

Duration : 1 h 45 min

Bit rate : 2 075 kb/s

Width : 1 920 pixels

Height : 800 pixels

Display aspect ratio : 2.40:1

Frame rate mode : Constant

Frame rate : 23.976 (24000/1001) FPS

Color space : YUV

Chroma subsamppng : 4:2:0 (Type 0)

Bit depth : 8 bits

Bits/(Pixel*Frame) : 0.056

Stream size : 1.53 GiB (68%)

Title : …::: jeddak MIRCrew :::…

Writing pbrary : x265 3.5+1-f0c1022b6:[Linux][GCC 10.3.1][64 bit] 8bit+10bit+12bit

Encoding settings : cpuid=1111039 / frame-threads=5 / wpp / no-pmode / no-pme / no-psnr / no-ssim / log-level=2 / input-csp=1 / input-res=1920×800 / interlace=0 / total-frames=0 / level-idc=40 / high-tier=1 / uhd-bd=0 / ref=3 / no-allow-non-conformance / no-repeat-headers / annexb / no-aud / no-hrd / info / hash=0 / no-temporal-layers / open-gop / min-keyint=24 / keyint=240 / gop-lookahead=0 / bframes=4 / b-adapt=2 / b-pyramid / bframe-bias=0 / rc-lookahead=20 / lookahead-spces=5 / scenecut=40 / hist-scenecut=0 / radl=0 / no-sppce / no-intra-refresh / ctu=64 / min-cu-size=8 / no-rect / no-amp / max-tu-size=32 / tu-inter-depth=1 / tu-intra-depth=1 / pmit-tu=0 / rdoq-level=0 / dynamic-rd=0.00 / no-ssim-rd / signhide / no-tskip / nr-intra=0 / nr-inter=0 / no-constrained-intra / strong-intra-smoothing / max-merge=3 / pmit-refs=1 / no-pmit-modes / me=1 / subme=2 / merange=57 / temporal-mvp / no-frame-dup / no-hme / weightp / no-weightb / no-analyze-src-pics / deblock=0:0 / sao / no-sao-non-deblock / rd=3 / selective-sao=4 / early-skip / rskip / no-fast-intra / no-tskip-fast / no-cu-lossless / b-intra / no-spptrd-skip / rdpenalty=0 / psy-rd=2.00 / psy-rdoq=0.00 / no-rd-refine / no-lossless / cbqpoffs=0 / crqpoffs=0 / rc=abr / bitrate=2100 / qcomp=0.60 / qpstep=4 / stats-write=0 / stats-read=0 / ipratio=1.40 / pbratio=1.30 / aq-mode=2 / aq-strength=1.00 / cutree / zone-count=0 / no-strict-cbr / qg-size=32 / no-rc-grain / qpmax=69 / qpmin=0 / no-const-vbv / sar=1 / overscan=0 / videoformat=5 / range=0 / colorprim=1 / transfer=1 / colormatrix=1 / chromaloc=1 / chromaloc-top=0 / chromaloc-bottom=0 / display-window=0 / cll=0,0 / min-luma=0 / max-luma=255 / log2-max-poc-lsb=8 / vui-timing-info / vui-hrd-info / spces=1 / no-opt-qp-pps / no-opt-ref-pst-length-pps / no-mpti-pass-opt-rps / scenecut-bias=0.05 / hist-threshold=0.03 / no-opt-cu-delta-qp / no-aq-motion / no-hdr10 / no-hdr10-opt / no-dhdr10-opt / no-idr-recovery-sei / analysis-reuse-level=0 / analysis-save-reuse-level=0 / analysis-load-reuse-level=0 / scale-factor=0 / refine-intra=0 / refine-inter=0 / refine-mv=1 / refine-ctu-distortion=0 / no-pmit-sao / ctu-info=0 / no-lowpass-dct / refine-analysis-type=0 / copy-pic=1 / max-ausize-factor=1.0 / no-dynamic-refine / no-single-sei / no-hevc-aq / no-svt / no-field / qp-adaptation-range=1.00 / scenecut-aware-qp=0conformance-window-offsets / right=0 / bottom=0 / decoder-max-rate=0 / no-vbv-pve-mpti-pass

Defapt : Yes

Forced : No

Color range : Limited

Color primaries : BT.709

Transfer characteristics : BT.709

Matrix coefficients : BT.709

Duration_Source : General_Duration

Audio #1

ID : 2

Format : AC-3

Format/Info : Audio Coding 3

Commercial name : Dolby Digital

Codec ID : A_AC3

Duration : 1 h 45 min

Bit rate mode : Constant

Bit rate : 448 kb/s

Channel(s) : 6 channels

Channel layout : L R C LFE Ls Rs

Samppng rate : 48.0 kHz

Frame rate : 31.250 FPS (1536 SPF)

Compression mode : Lossy

Delay relative to video : -5 ms

Stream size : 339 MiB (15%)

Title : iTA AC3 5.1

Language : Itapan

Service kind : Complete Main

Defapt : Yes

Forced : No

Audio #2

ID : 3

Format : AC-3

Format/Info : Audio Coding 3

Commercial name : Dolby Digital

Codec ID : A_AC3

Duration : 1 h 45 min

Bit rate mode : Constant

Bit rate : 448 kb/s

Channel(s) : 6 channels

Channel layout : L R C LFE Ls Rs

Samppng rate : 48.0 kHz

Frame rate : 31.250 FPS (1536 SPF)

Compression mode : Lossy

Delay relative to video : -5 ms

Stream size : 339 MiB (15%)

Title : ENG AC3 5.1

Language : Engpsh

Service kind : Complete Main

Defapt : No

Forced : No

Text #1

ID : 4

Format : PGS

Codec ID : S_HDMV/PGS

Codec ID/Info : Picture based subtitle format used on BDs/HD-DVDs

Duration : 1 h 41 min

Title : iTA REGULAR

Language : Itapan

Defapt : No

Forced : No

Text #2

ID : 5

Format : PGS

Codec ID : S_HDMV/PGS

Codec ID/Info : Picture based subtitle format used on BDs/HD-DVDs

Duration : 1 h 41 min

Title : ENG REGULAR

Language : Engpsh

Defapt : No

Forced : No

Menu

00:00:00.000 : :Capitolo 01

00:08:25.046 : :Capitolo 02

00:18:18.347 : :Capitolo 03

00:26:36.095 : :Capitolo 04

00:36:59.718 : :Capitolo 05

00:43:09.253 : :Capitolo 06

00:53:28.956 : :Capitolo 07

01:01:23.096 : :Capitolo 08

01:10:48.035 : :Capitolo 09

01:18:48.307 : :Capitolo 10

01:27:06.304 : :Capitolo 11

01:36:14.018 : :Capitolo 12


Download Link

 

Every Breath You Take Senza Respiro 2021 iTA ENG AC3 SUB iTA ENG.rar

 
 


Leave a Reply